The Hobbit The Battle of the Five Armies [2014] 3D H-SBS 1080p [Ing-Lat]

The Hobbit The Battle of the Five Armies [2014] 3D H-SBS 1080p [Ing-Lat]

Titulo original: The Hobbit: The Battle of the Five Armies
Ano: 2014
Duracion: 144 min.
Pais: Estados Unidos
Director: Peter Jackson
Guion: Philippa Boyens, Peter Jackson, Fran Walsh, Guillermo del Toro (Novela: J.R.R. Tolkien)
Musica: Howard Shore
Fotografia: Andrew Lesnie
Reparto: Martin Freeman, Ian McKellen, Richard Armitage, Luke Evans, Orlando Bloom, Aidan Turner, Evangeline Lilly, Lee Pace, Ryan Gage, Ken Stott, Graham McTavish, James Nesbitt, Jed Brophy, Stephen Hunter, John Callen, Adam Brown, Dean OGorman, William Kircher, Peter Hambleton, Mark Hadlow, Cate Blanchett, Hugo Weaving, Billy Connolly, Christopher Lee, Stephen Fry, Ian Holm, Sylvester McCoy, Manu Bennett
Productora: MGM / New Line Cinema / WingNut Films
Genero: Fantastico. Aventuras. Accion | Fantasia medieval. Espada y brujeria. Secuela. 3-D
Sinopsis: Despues de haber recuperado el reino del Dragon Smaug en la montana, la Compania ha desencadenado, sin querer, una potencia maligna. Un Smaug enfurecido vuela hacia la Ciudad del Lago para acabar con cualquier resto de vida. Obsesionado con las enormes riquezas en su poder, el rey enano Thorin se vuelve codicioso, mientras Bilbo intenta hacerle entrar en razon haciendo algo desesperado y peligroso. Pero hay aun mayores peligros por delante. Sin la ayuda del mago Gandalf, su gran enemigo Sauron ha enviado legiones de orcos hacia la Montana Solitaria en un ataque epico. Cuando la oscuridad se cierna sobre ellos, las razas de los Enanos, Elfos y Hombres deberan decidir si unirse o ser destruidos. Bilbo se encontrara asi en la batalla epica de los Cinco Ejercitos, donde el futuro de la Tierra Media esta en juego.

http://www.imdb.com/title/tt2310332/

Trailer
https://youtu.be/f56U1OZpbW0

General
Format : Matroska
Format version : Version 4 / Version 2
File size : 21.5 GiB
Duration : 2h 24mn
Overall bit rate mode : Variable
Overall bit rate : 21.3 Mbps
Encoded date : UTC 2015-06-15 16:27:27
Writing application : mkvmerge v7.1.0 (Good Love) 64bit built on Jul 27 2014 13:06:55
Writing library : libebml v1.3.0 + libmatroska v1.4.1
Video
ID : 1
Format : AVC
Format/Info : Advanced Video Codec
Format profile : High@L4.1
Format settings, CABAC : Yes
Format settings, ReFrames : 2 frames
Codec ID : V_MPEG4/ISO/AVC
Duration : 2h 24mn
Nominal bit rate : 15.5 Mbps
Width : 1 920 pixels
Height : 1 080 pixels
Display aspect ratio : 16:9
Frame rate mode : Constant
Frame rate : 23.976 fps
Color space : YUV
Chroma subsampling : 4:2:0
Bit depth : 8 bits
Scan type : Progressive
Bits/(Pixel*Frame) : 0.312
Writing library : x264 core 142
Language : English
Default : Yes
Forced : No
Color primaries : BT.709
Transfer characteristics : BT.709
Matrix coefficients : BT.709
Audio #1
ID : 2
Format : AC-3
Format/Info : Audio Coding 3
Mode extension : CM (complete main)
Format settings, Endianness : Big
Codec ID : A_AC3
Duration : 2h 24mn
Bit rate mode : Constant
Bit rate : 448 Kbps
Channel(s) : 6 channels
Channel positions : Front: L C R, Side: L R, LFE
Sampling rate : 48.0 KHz
Bit depth : 16 bits
Compression mode : Lossy
Stream size : 463 MiB (2%)
Title : AC3 5.1 Bluray
Language : Spanish
Default : Yes
Forced : No
Audio #2
ID : 3
Format : DTS
Format/Info : Digital Theater Systems
Format profile : MA / Core
Mode : 16
Format settings, Endianness : Big
Codec ID : A_DTS
Duration : 2h 24mn
Bit rate mode : Variable
Bit rate : Unknown / 1 509 Kbps
Channel(s) : 8 channels / 6 channels
Channel positions : Front: L C R, Side: L R, Back: L R, LFE / Front: L C R, Side: L R, LFE
Sampling rate : 48.0 KHz
Bit depth : 24 bits
Compression mode : Lossless / Lossy
Title : DTS 5.1
Language : English
Default : No
Forced : No
Audio #3
ID : 4
Format : AC-3
Format/Info : Audio Coding 3
Mode extension : CM (complete main)
Format settings, Endianness : Big
Codec ID : A_AC3
Duration : 2h 24mn
Bit rate mode : Constant
Bit rate : 640 Kbps
Channel(s) : 6 channels
Channel positions : Front: L C R, Side: L R, LFE
Sampling rate : 48.0 KHz
Bit depth : 16 bits
Compression mode : Lossy
Stream size : 661 MiB (3%)
Title : AC3 5.1
Language : English
Default : No
Forced : No
Text #1
ID : 5
Format : PGS
Muxing mode : zlib
Codec ID : S_HDMV/PGS
Codec ID/Info : The same subtitle format used on BDs/HD-DVDs
Title : Forz
Language : Spanish
Default : Yes
Forced : No
Text #2
ID : 6
Format : PGS
Muxing mode : zlib
Codec ID : S_HDMV/PGS
Codec ID/Info : The same subtitle format used on BDs/HD-DVDs
Title : Complet
Language : Spanish
Default : No
Forced : No





Buy Premium Account To Get High Speed Download
http://lupaste.com/?v=22682


Deja un comentario

Tu dirección de correo electrónico no será publicada. Los campos obligatorios están marcados con *