The Little Mermaid [1989] 3D H-SBS 1080p [Ing-Lat]

The Little Mermaid [1989] 3D H-SBS 1080p [Ing-Lat]

TITULO ORIGINAL: The Little Mermaid
ANO: 1989
DURACION: 79 min.
PAIS: USA
DIRECTOR: John Musker, Ron Clements
GUION: John Musker, Ron Clements (Cuento: Hans Christian Andersen)
REPARTO: Animation
PRODUCTORA: Walt Disney Pictures
GENERO: Animacion. Fantastico. Musical. Infantil | Mitologia. Aventuras marinas. Cuentos
Sinopsis: Ariel, hija del rey Triton, es la princesa de las sirenas. Esta a punto de celebrarse su fiesta de cumpleanos, y su mayor ilusion seria la de poder conocer a los humanos, puesto que nunca los ha visto. Ayudada por la bruja Ursula, Ariel conseguira subir a la superficie, donde salvara de morir ahogado a un hermoso principe, Eric, cuyo barco acaba de naufragar y del que se enamorara perdidamente…

http://www.imdb.com/title/tt0097757/

Trailer
https://youtu.be/tVIg91QF9g4

General
Format : Matroska
Format version : Version 3 / Version 2
File size : 5.98 GiB
Duration : 1h 22mn
Overall bit rate : 10.3 Mbps
Encoded date : UTC 2013-09-19 19:01:38
Writing application : mkvmerge v5.7.0 (The Whirlwind) built on Jul 8 2012 20:08:51
Writing library : libebml v1.2.3 + libmatroska v1.3.0
Video
ID : 1
Format : AVC
Format/Info : Advanced Video Codec
Format profile : High@L4.1
MultiView_Count : 2
MultiView_Layout : Side by Side (left eye first)
Format settings, CABAC : Yes
Format settings, ReFrames : 4 frames
Codec ID : V_MPEG4/ISO/AVC
Duration : 1h 22mn
Bit rate : 7 336 Kbps
Width : 1 920 pixels
Height : 1 080 pixels
Display aspect ratio : 16:9
Frame rate mode : Constant
Frame rate : 23.976 fps
Color space : YUV
Chroma subsampling : 4:2:0
Bit depth : 8 bits
Scan type : Progressive
Bits/(Pixel*Frame) : 0.148
Stream size : 4.25 GiB (71%)
Language : English
Default : Yes
Forced : No
Audio #1
ID : 2
Format : AC-3
Format/Info : Audio Coding 3
Mode extension : CM (complete main)
Format settings, Endianness : Big
Codec ID : A_AC3
Duration : 1h 22mn
Bit rate mode : Constant
Bit rate : 640 Kbps
Channel(s) : 6 channels
Channel positions : Front: L C R, Side: L R, LFE
Sampling rate : 48.0 KHz
Bit depth : 16 bits
Compression mode : Lossy
Stream size : 379 MiB (6%)
Title : AC3 5.1
Language : Spanish
Default : Yes
Forced : No
Audio #2
ID : 3
Format : AC-3
Format/Info : Audio Coding 3
Mode extension : CM (complete main)
Format settings, Endianness : Big
Codec ID : A_AC3
Duration : 1h 22mn
Bit rate mode : Constant
Bit rate : 640 Kbps
Channel(s) : 6 channels
Channel positions : Front: L C R, Side: L R, LFE
Sampling rate : 48.0 KHz
Bit depth : 16 bits
Compression mode : Lossy
Stream size : 379 MiB (6%)
Title : AC3 5.1
Language : English
Default : No
Forced : No
Audio #3
ID : 4
Format : DTS
Format/Info : Digital Theater Systems
Mode : 16
Format settings, Endianness : Big
Codec ID : A_DTS
Duration : 1h 22mn
Bit rate mode : Constant
Bit rate : 1 509 Kbps
Channel(s) : 6 channels
Channel positions : Front: L C R, Side: L R, LFE
Sampling rate : 48.0 KHz
Bit depth : 24 bits
Compression mode : Lossy
Stream size : 894 MiB (15%)
Title : DTS 5.1
Language : English
Default : No
Forced : No
Text
ID : 5
Format : PGS
Muxing mode : zlib
Codec ID : S_HDMV/PGS
Codec ID/Info : The same subtitle format used on BDs/HD-DVDs
Language : Spanish
Default : No
Forced : No





Buy Premium Account To Get High Speed Download
http://lupaste.com/?v=23243


Deja un comentario

Tu dirección de correo electrónico no será publicada. Los campos obligatorios están marcados con *